Tickling The Yeti [EP]

by shantiq

/
  • Includes unlimited streaming via the free Bandcamp app, plus high-quality download in MP3, FLAC and more.

     £3.50 GBP  or more

     

about

Three purely electronic trax and two sung semi-covers or more accurately meditations on classics.

01 - Agamemnon Goes Shopping In A Kilt And Bites The Hand Respectfully Part I and II
02 - 2015
03 - Feels Like Spring - She Brings The Rain
04 - BEAT -A Sound Meditation On LA Woman
05 - Lagarto es muy muy verde pero feliz!

Copy Cue info paste into text editor and save as Tickling The Yeti [2015].cue
to separate the tracks of the EP in your music player.

REM GENRE "Avant"
REM DATE 2015
PERFORMER "Shantiq"
TITLE "Tickling The Yeti [2015]"
FILE "Tickling The Yeti [2015].flac" WAVE
TRACK 01 AUDIO
TITLE "Agamemnon Goes Shopping In A Kilt And Bites The Hand Respectfully Part I and II"
PERFORMER "Shantiq"
INDEX 01 00:00:00
TRACK 02 AUDIO
TITLE "2015"
PERFORMER "Shantiq"
INDEX 01 04:53:00
TRACK 03 AUDIO
TITLE "Feels Like Spring - She Brings The Rain"
PERFORMER "Shantiq"
INDEX 01 08:06:00
TRACK 04 AUDIO
TITLE "BEAT -A Sound Meditation On LA Woman"
PERFORMER "Shantiq"
INDEX 01 13:05:00
TRACK 05 AUDIO
TITLE "Lagarto es muy muy verde pero feliz!"
PERFORMER "Shantiq"
INDEX 01 19:53:54

credits

released December 17, 2015

tags

license

feeds

feed for this artist

about

shantiq Norwich

French-born artist living in UK since 1977

contact / help

Contact shantiq

Streaming and
Download help